+ Reply to Thread
Results 1 to 7 of 7
  1. #1
    Administrators Duckload.us's Avatar
    Join Date
    Dec 2010
    Posts
    97,026
    Thanks
    9
    Thanked 98,408 Times in 47,349 Posts

    Lightbulb [Mini-HD] Toy Story : Trilogy Boxset (1995 - 1999 - 2010) ~ ทอย สตอรี่ 1 - 3 [720p.AC3. - [H.Q.Box Set] - Mini-hidef-Animation - AUDIO : English AC-3 , Thai AC-3 / SUB : English , Thai] ** CtHts **



    Toy Story : Trilogy Boxset (1995 - 1999 - 2010) ~ ทอย สตอรี่ 1 - 3

    ----------------------------------------------------------------------------------------------------

    Toy Story (1995) ~ ทอย สตอรี่

    Rated G
    Copyright/Studio Disney / Buena Vista
    Genres
    Animation , Cartoon

    Director
    John Lasseter
    Starring
    Tom Hanks , Tim Allen
    Synopsis
    ก่อนที่จะมีภาพยนตร์เรื่อง Finding Nemo , Monsters , Inc. , และ Cars ผู้สร้างทั้งหลายของ Disney/Pixar ได้นำคุณสู่ Toy Story ร่วมประหลาดใจไปกับโลกแห่งของเล่นเวลาตอนเจ้าของไม่อ ยู่บ้าน กลับมาให้คุณผจญภัยกันอีกครั้งกับ Woody (พากย์เสียงโดย ทอม แฮงค์) , Buzz Lightyear (พากย์เสียงโดย ทิม อัลเลน) กับบรรดาผ่องเพื่อนกับเสียงหัวเราะ ความรัก และมิตรภาพและการผจญภัยอันยิ่งใหญ่ไปกับ Toy Story

    Before Finding Nemo , Monsters , Inc. and Cars , the creative minds of Disney/Pixar introduced you to Toy Story and an astonishing world where toys play while their owners are away. Rediscover acclaimed filmmaker John Lasseter s directorial debut with Woody (Tom Hanks) , Buzz Lightyear (Tim Allen) and all their friends in an adventure filled with humor , heart and friendship - in a must-have DVD Edition.

    This groundbreaking computer-generated classic started it all and set the stage for the equally amazing Toy Story 2.

    Format : Matroska
    File size : 3.05 GiB
    Duration : 1h 21mn
    Overall bit rate : 5 392 Kbps
    Movie name : Toy Story I 720p
    Encoded date : UTC 2012-02-04 21:34:22
    Writing application : mkvmerge v3.4.0 ( Rapunzel ) built on May 15 2010 09:38:20
    Writing library : libebml v0.8.0 + libmatroska v0.9.0

    Video
    ID : 1
    Format : AVC
    Format/Info : Advanced Video Codec
    Format profile : [email protected]
    Format settings , CABAC : Yes
    Format settings , ReFrames : 3 frames
    Muxing mode : Container [email protected]
    Codec ID : V_MPEG4/ISO/AVC
    Duration : 1h 21mn
    Bit rate : 4 612 Kbps
    Width : 1 280 pixels
    Height : 720 pixels
    Display aspect ratio : 16:9
    Frame rate : 23.976 fps
    Color space : YUV
    Chroma subsampling : 4:2:0
    Bit depth : 8 bits
    Scan type : Progressive
    Bits/(Pixel*Frame) : 0.209
    Stream size : 2.56 GiB (84%)
    Writing library : x264 core 114 r1924 08d04a4
    Encoding settings : cabac=1 / ref=3 / deblock=1:0:0 / analyse=0x3:0x133 / me=tesa / subme=10 / psy=1 / psy_
    rd=1.00:0.00 / mixed_ref=1 / me_range=16 / chroma_me=1 / trellis=2 / 8x8dct=1 / cqm=0 / deadzone=21 , 11 / fast_pskip
    =1 / chroma_qp_offset=-2 / threads=9 / sliced_threads=0 / nr=0 / decimate=1 / interlaced=0 / constrained_intra=0 /
    bframes=3 / b_pyramid=0 / b_adapt=2 / b_bias=0 / direct=1 / weightb=1 / open_gop=0 / weightp=2 / keyint=240 /
    keyint_min=24 / scenecut=40 / intra_refresh=0 / rc_lookahead=40 / rc=2pass / mbtree=1 / bitrate=4612 / ratetol=1.0
    / qcomp=0.60 / qpmin=0 / qpmax=69 / qpstep=4 / cplxblur=20.0 / qblur=0.5 / vbv_maxrate=25000 / vbv_bufsize=
    25000 / nal_hrd=vbr / ip_ratio=1.40 / aq=1:1.00

    Audio #1
    ID : 2
    Format : AC-3
    Format/Info : Audio Coding 3
    Mode extension : CM (complete main)
    Codec ID : A_AC3
    Duration : 1h 21mn
    Bit rate mode : Constant
    Bit rate : 384 Kbps
    Channel(s) : 6 channels
    Channel positions : Front: L C R , Side: L R , LFE
    Sampling rate : 48.0 KHz
    Stream size : 223 MiB (7%)
    Language : Thai

    Audio #2
    ID : 3
    Format : AC-3
    Format/Info : Audio Coding 3
    Mode extension : CM (complete main)
    Codec ID : A_AC3
    Duration : 1h 21mn
    Bit rate mode : Constant
    Bit rate : 384 Kbps
    Channel(s) : 6 channels
    Channel positions : Front: L C R , Side: L R , LFE
    Sampling rate : 48.0 KHz
    Stream size : 223 MiB (7%)
    Language : English

    Text #1
    ID : 4
    Format : VobSub
    Codec ID : S_VOBSUB
    Codec ID/Info : The same subtitle format used on DVDs
    Title : Thai [1080p]
    Language : Thai

    Text #2
    ID : 5
    Format : VobSub
    Codec ID : S_VOBSUB
    Codec ID/Info : The same subtitle format used on DVDs
    Title : Eng [1080p]
    Language : English


    [img]http://postto.me/is/minihidefanimationtoystoryi.1995720ph.qcthts106685 135
    444.jpg[/img]

    ************************************************** *****************


    Toy Story 2 (1999) ~ ทอย สตอรี่ 2

    Rated G
    Copyright/Studio Disney / Buena Vista
    Genres
    Animation , Cartoon

    Director
    John Lasseter
    Starring
    Tom Hanks , Tim Allen
    Synopsis
    จากผู้สร้าง Finding Nemo , Monsters , Inc. , และ Cars สู่ Toy Story 2 ที่สุดของความสำเร็จจนคว้ารางวัลลูกโลกทองคำสาขาภาพย นตร์ยอดเยี่ยม กลับมาให้คุณชื่นชมอีกครั้งกับเสียงหัวเราะ ความรัก และมิตรภาพและการผจญภัยอันยิ่งใหญ่

    สู่โลกแห่งจิตรนาการของ Disney/Pixar ไปกับ Woody , Buzz , Jessie และ Bullseyes กับภาพยนตร์ที่จะนำคุณไปรู้ซึ่งถึงโลกแห่งของเล่นและ มิตรภาพว่าเป็นอย่างไร ร่วมไปถึงเรื่องราวที่ต่อเนื่องจนต้องมีภาค 3 ตามมา

    From the filmmakers behind Finding Nemo , Monsters , Inc. and Cars comesToy Story 2 - the highly acclaimed hit that earned a Golden Globe Award for Best Picture. Rediscover the humor , heart and friendship of this hilarious adventure in a spectacular DVD Edition that goes to infinity and beyond!

    Enter Disney/Pixar s incredible world of Woody , Buzz , Jessie and Bullseye in the movie that shows us what being a toy , and a friend , is all . Plus , get a look at how the incredible tale continues with a sneak peek at Toy Story 3. This must-have comedy classic is the perfect addition to your Disney/Pixar collection and hours of fun for the entire family!

    Format : Matroska
    File size : 3.08 GiB
    Duration : 1h 32mn
    Overall bit rate : 4 752 Kbps
    Movie name : Toy Story 2 (1999) 720p
    Encoded date : UTC 2012-02-05 12:33:31
    Writing application : mkvmerge v3.4.0 ( Rapunzel ) built on May 15 2010 09:38:20
    Writing library : libebml v0.8.0 + libmatroska v0.9.0

    Video
    ID : 1
    Format : AVC
    Format/Info : Advanced Video Codec
    Format profile : [email protected]
    Format settings , CABAC : Yes
    Format settings , ReFrames : 3 frames
    Muxing mode : Container [email protected]
    Codec ID : V_MPEG4/ISO/AVC
    Duration : 1h 32mn
    Bit rate : 3 974 Kbps
    Width : 1 280 pixels
    Height : 720 pixels
    Display aspect ratio : 16:9
    Frame rate : 23.976 fps
    Color space : YUV
    Chroma subsampling : 4:2:0
    Bit depth : 8 bits
    Scan type : Progressive
    Bits/(Pixel*Frame) : 0.180
    Stream size : 2.52 GiB (82%)
    Writing library : x264 core 114 r1924 08d04a4
    Encoding settings : cabac=1 / ref=3 / deblock=1:0:0 / analyse=0x3:0x133 / me=tesa / subme=10 / psy=1 / psy_
    rd=1.00:0.00 / mixed_ref=1 / me_range=16 / chroma_me=1 / trellis=2 / 8x8dct=1 / cqm=0 / deadzone=21 , 11 / fast_pskip
    =1 / chroma_qp_offset=-2 / threads=9 / sliced_threads=0 / nr=0 / decimate=1 / interlaced=0 / constrained_intra=0 /
    bframes=3 / b_pyramid=0 / b_adapt=2 / b_bias=0 / direct=1 / weightb=1 / open_gop=0 / weightp=2 / keyint=240 /
    keyint_min=24 / scenecut=40 / intra_refresh=0 / rc_lookahead=40 / rc=2pass / mbtree=1 / bitrate=3974 / ratetol=1.0
    / qcomp=0.60 / qpmin=0 / qpmax=69 / qpstep=4 / cplxblur=20.0 / qblur=0.5 / vbv_maxrate=25000 / vbv_bufsize=
    25000 / nal_hrd=vbr / ip_ratio=1.40 / aq=1:1.00

    Audio #1
    ID : 2
    Format : AC-3
    Format/Info : Audio Coding 3
    Mode extension : CM (complete main)
    Codec ID : A_AC3
    Duration : 1h 32mn
    Bit rate mode : Constant
    Bit rate : 384 Kbps
    Channel(s) : 6 channels
    Channel positions : Front: L C R , Side: L R , LFE
    Sampling rate : 48.0 KHz
    Stream size : 255 MiB (8%)
    Language : Thai

    Audio #2
    ID : 3
    Format : AC-3
    Format/Info : Audio Coding 3
    Mode extension : CM (complete main)
    Codec ID : A_AC3
    Duration : 1h 32mn
    Bit rate mode : Constant
    Bit rate : 384 Kbps
    Channel(s) : 6 channels
    Channel positions : Front: L C R , Side: L R , LFE
    Sampling rate : 48.0 KHz
    Stream size : 255 MiB (8%)
    Language : English

    Text #1
    ID : 4
    Format : VobSub
    Codec ID : S_VOBSUB
    Codec ID/Info : The same subtitle format used on DVDs
    Title : Thai
    Language : Thai

    Text #2
    ID : 5
    Format : VobSub
    Codec ID : S_VOBSUB
    Codec ID/Info : The same subtitle format used on DVDs
    Title : Eng
    Language : English





    ************************************************** *****************



    Toy Story 3 (2010) ~ ทอย สตอรี่ 3

    Rated G
    Copyright/Studio Disney / Buena Vista / Pixar Animation Studios
    Genres
    Adventure , Animation , Cartoon , Comedy , Family , Fantasy

    Director
    Lee Unkrich
    Starring
    Joan Cusack , Wallace Shawn , Estelle Harris , Tom Hanks , Ned Beatty , Tim Allen , Michael Keaton , John Ratzenberger , Don Rickles
    Synopsis
    เป็นเรื่องราวการผจญภัยของเหล่าของเล่นของแอนดี้ ที่ประกอบไปด้วย วู้ดดี้ , บัซ ไลท์เยียร์ , เจสซี่ , และแก๊งค์ของเล่นชุดเดิมไม่ว่าจะเป็น แฮมม์ , เร็กซ์ , สลิงกี้ด็อก , คุณและคุณนายโปเตโต้เฮด ซึ่งครั้งนี้แอนดี้ได้เติบโตขึ้นและจะต้องไปเรียนต่อ ทิ้งเหล่าของเล่นสุดโปรดของเขาไว้ โดยที่พวกเขาไม่รู้ถึงชะตากรรมว่าจะเป็นอย่างไรต่อไป จะต้องออกผจญภัยไปเจอกับอะไรอีกมากมาย นอกจากนี้แฟนๆยังจะได้พบกับของเล่นใหม่ๆที่ไม่เคยเห็ นมาก่อน แต่พวกเขาจะเป็นมิตรหรือศัตรู อันนี้ก็จะต้องไปลุ้นกันต่อ

    The creative minds behind Disney Pixar s groundbreaking animated blockbusters invites you back inside the Toys delightful world for a heartwarming and hilarious Hi-Definition movie experience you ll never forget. All the original voice talent returns (including Tom Hanks and Tim Allen) plus new talent including Michael Keaton as Ken and Ned Beatty as Lots-O -Huggin Bear. It s the biggest , best , most exciting Toy Story of them all , raves Access Hollywood.

    As Andy gets ready to leave for college , Woody , Buzz , Jessie and the rest of the gang wonder if this is the end of the line. But , when a mix up lands them in the Sunnyside Day Care Center where they meet 14 new toys , they soon discover that a wild new adventure is just beginning! Take an amazing journey with some of the most beloved characters in movie history and discover what being a friend is truly all .

    It s everything a movie should be: hilarious , touching , exciting and clever , says USA Today. Buzzing with hours of exclusive bonus features , including an interactive trivia game and the Pixar short film Day and Night.

    Format : Matroska
    File size : 3.11 GiB
    Duration : 1h 43mn
    Overall bit rate : 4 327 Kbps
    Movie name : Toy Story 2 (1999) 720p
    Encoded date : UTC 2012-02-05 12:57:49
    Writing application : mkvmerge v3.4.0 ( Rapunzel ) built on May 15 2010 09:38:20
    Writing library : libebml v0.8.0 + libmatroska v0.9.0

    Video
    ID : 1
    Format : AVC
    Format/Info : Advanced Video Codec
    Format profile : [email protected]
    Format settings , CABAC : Yes
    Format settings , ReFrames : 3 frames
    Muxing mode : Container [email protected]
    Codec ID : V_MPEG4/ISO/AVC
    Duration : 1h 43mn
    Bit rate : 3 547 Kbps
    Width : 1 280 pixels
    Height : 720 pixels
    Display aspect ratio : 16:9
    Frame rate : 23.976 fps
    Color space : YUV
    Chroma subsampling : 4:2:0
    Bit depth : 8 bits
    Scan type : Progressive
    Bits/(Pixel*Frame) : 0.161
    Stream size : 2.50 GiB (80%)
    Writing library : x264 core 114 r1924 08d04a4
    Encoding settings : cabac=1 / ref=3 / deblock=1:0:0 / analyse=0x3:0x133 / me=tesa / subme=10 / psy=1 / psy_rd
    =1.00:0.00 / mixed_ref=1 / me_range=16 / chroma_me=1 / trellis=2 / 8x8dct=1 / cqm=0 / deadzone=21 , 11 / fast_pskip=1
    / chroma_qp_offset=-2 / threads=9 / sliced_threads=0 / nr=0 / decimate=1 / interlaced=0 / constrained_intra=0 /
    bframes=3 / b_pyramid=0 / b_adapt=2 / b_bias=0 / direct=1 / weightb=1 / open_gop=0 / weightp=2 / keyint=240 /
    keyint_min=24 / scenecut=40 / intra_refresh=0 / rc_lookahead=40 / rc=2pass / mbtree=1 / bitrate=3547 / ratetol=1.0
    / qcomp=0.60 / qpmin=0 / qpmax=69 / qpstep=4 / cplxblur=20.0 / qblur=0.5 / vbv_maxrate=25000 / vbv_bufsize=
    25000 / nal_hrd=vbr / ip_ratio=1.40 / aq=1:1.00

    Audio #1
    ID : 2
    Format : AC-3
    Format/Info : Audio Coding 3
    Mode extension : CM (complete main)
    Codec ID : A_AC3
    Duration : 1h 43mn
    Bit rate mode : Constant
    Bit rate : 384 Kbps
    Channel(s) : 6 channels
    Channel positions : Front: L C R , Side: L R , LFE
    Sampling rate : 48.0 KHz
    Stream size : 283 MiB (9%)
    Language : Thai

    Audio #2
    ID : 3
    Format : AC-3
    Format/Info : Audio Coding 3
    Mode extension : CM (complete main)
    Codec ID : A_AC3
    Duration : 1h 43mn
    Bit rate mode : Constant
    Bit rate : 384 Kbps
    Channel(s) : 6 channels
    Channel positions : Front: L C R , Side: L R , LFE
    Sampling rate : 48.0 KHz
    Stream size : 283 MiB (9%)
    Language : English

    Text #1
    ID : 4
    Format : VobSub
    Codec ID : S_VOBSUB
    Codec ID/Info : The same subtitle format used on DVDs
    Title : Thai [1080p]
    Language : Thai

    Text #2
    ID : 5
    Format : VobSub
    Codec ID : S_VOBSUB
    Codec ID/Info : The same subtitle format used on DVDs
    Title : Eng [1080p]
    Language : English





    Shared by society CtHts [Coming together.Happy to share.]

    เครดิตทีมงาน
    Coming together.Happy to share.

    1
    http://www.filecondo.com/dl.php?f=23b7171upoTl
    2
    http://www.filecondo.com/dl.php?f=m41a711upoVl
    3
    http://www.filecondo.com/dl.php?f=vde6911upoUF

  2. The Following 8 Users Say Thank You to Duckload.us For This Useful Post:

    B-Faii (06-18-2013), birdy2012 (06-28-2013), deadpool (09-07-2015), kappa (06-04-2013), prasert.pp (06-04-2013), StepLoveDj Like (04-19-2014), xchamp (06-18-2013), zasaki (06-29-2014)

  3. #2
    Junior Member
    Join Date
    Oct 2012
    Posts
    9
    Thanks
    0
    Thanked 0 Times in 0 Posts
    ลิงก์ที่ 3 โหลดไม่ได้คับ

  4. #3
    Member
    Join Date
    May 2012
    Posts
    65
    Thanks
    296
    Thanked 0 Times in 0 Posts
    ขอบคุณมากครับ

  5. #4
    Senior Member B-Faii's Avatar
    Join Date
    Oct 2012
    Location
    THAILAND
    Posts
    1,154
    Thanks
    1,337
    Thanked 0 Times in 0 Posts
    มาขอเอาไปดูด้วยคนนะค่ะ ขอบคุณมากๆเลยนะค่ะ

  6. #5
    Senior Member
    Join Date
    Sep 2013
    Posts
    1,129
    Thanks
    0
    Thanked 1 Time in 1 Post
    ขอบพระคุณเป็นอย่างสูงครับ

  7. #6
    Member Thewinman's Avatar
    Join Date
    Dec 2012
    Posts
    82
    Thanks
    95
    Thanked 0 Times in 0 Posts
    ขอบคุณมากเลยคับ ดูตั้งแต่ยังซนๆอยู่เลย 555555

  8. #7
    Senior Member
    Join Date
    Jan 2014
    Posts
    774
    Thanks
    777
    Thanked 0 Times in 0 Posts
    ขอบคุณมากๆคับ

+ Reply to Thread

Thread Information

Users Browsing this Thread

There are currently 1 users browsing this thread. (0 members and 1 guests)

     

Posting Permissions

  • You may not post new threads
  • You may not post replies
  • You may not post attachments
  • You may not edit your posts