2160p.BluRay.REMUX.HEVC.DTS-HD.MA.5.1


เรื่องราวสาวนิวยอร์กแท้ ๆ อย่าง ราเชล ชู ที่เธอต้องเดินทางไปร่วมงานแต่งงานของเพื่อนสนิทของ นิค แฟนหนุ่มเธอที่ประเทศสิงคโปร์ ไม่เพียงแต่จะตื่นเต้นที่จะได้ไปเยือนเอเชียเป็นครั้ งแรกเท่านั้น แต่เธอยังกังวลที่จะต้องไปพบกับครอบครัวของนิคอีกด้ว ย ซึ่งราเชลได้รู้ถึงเรื่องราวชีวิตของเขาเพียงเล็กน้อ ยเท่านั้น และเธอก็ได้เรียนรู้อย่างไม่ทันตั้งตัวว่า นอกจากที่นิคจะเป็นทายาทคนหนึ่งขอบครอบครัวที่รวยที่ สุดในประเทศเท่านั้น แต่เขายังเป็นหนุ่มที่ถูกหมายปองมากที่สุดอีกด้วย ซึ่งการคบกับนิคในครั้งนี้ทำให้เธอกลายเป็นเป้าหมายข องความอิจฉาจากวงสังคม และเลวร้ายยิ่งกว่า เพราะแม่ของนิคดันไม่ชอบเธออีกด้วย และต่อมาเธอก็ได้รู้ว่า ใจขณะที่เงินไม่สามารถซื้อความรักได้นั้น มันยังสามารถทำให้ทุกอย่างยิ่งวุ่นวายกว่าเดิมได้อีก ด้วย...!!!


Format : Matroska
Format version : Version 4
File size : 54.9 GiB
Duration : 2 h 0 min
Overall bit rate mode : Variable
Overall bit rate : 65.2 Mb/s
Movie name : [email protected]wit9730

Video
ID : 1
Format : HEVC
Format/Info : High Efficiency Video Coding
Commercial name : HDR10
Format profile : Main [email protected]@High
Codec ID : V_MPEGH/ISO/HEVC
Duration : 2 h 0 min
Bit rate : 60.8 Mb/s
Width : 3 840 pixels
Height : 2 160 pixels
Display aspect ratio : 16:9
Frame rate mode : Constant
Frame rate : 23.976 (24000/1001) FPS
Color space : YUV
Chroma subsampling : 4:2:0 (Type 2)
Bit depth : 10 bits
Bits/(Pixel*Frame) : 0.306
Stream size : 51.2 GiB (93%)
Title : [email protected]wit9730
Default : Yes
Forced : No
Color range : Limited
Color primaries : BT.2020
Transfer characteristics : PQ
Matrix coefficients : BT.2020 non-constant
Mastering display color primaries : Display P3
Mastering display luminance : min: 0.0050 cd/m2, max: 4000 cd/m2
Maximum Content Light Level : 4000 cd/m2
Maximum Frame-Average Light Level : 221 cd/m2

Audio #1
ID : 2
Format : DTS XLL
Format/Info : Digital Theater Systems
Commercial name : DTS-HD Master Audio
Codec ID : A_DTS
Duration : 2 h 0 min
Bit rate mode : Variable
Bit rate : 3 717 kb/s
Channel(s) : 6 channels
Channel layout : C L R Ls Rs LFE
Sampling rate : 48.0 kHz
Frame rate : 93.750 FPS (512 SPF)
Bit depth : 24 bits
Compression mode : Lossless
Stream size : 3.13 GiB (6%)
Title : English DTS-HD.MA 5.1
Language : English
Default : Yes
Forced : No

Audio #2
ID : 3
Format : AC-3
Format/Info : Audio Coding 3
Commercial name : Dolby Digital
Codec ID : A_AC3
Duration : 2 h 0 min
Bit rate mode : Constant
Bit rate : 640 kb/s
Channel(s) : 6 channels
Channel layout : L R C LFE Ls Rs
Sampling rate : 48.0 kHz
Frame rate : 31.250 FPS (1536 SPF)
Bit depth : 16 bits
Compression mode : Lossy
Stream size : 552 MiB (1%)
Title : English 5.1
Language : English
Service kind : Complete Main
Default : No
Forced : No

Text #1
ID : 4
Format : UTF-8
Codec ID : S_TEXT/UTF8
Codec ID/Info : UTF-8 Plain Text
Duration : 1 h 59 min
Bit rate : 61 b/s
Count of elements : 1591
Stream size : 53.9 KiB (0%)
Title : English SRT
Language : English
Default : Yes
Forced : No

Text #2
ID : 5
Format : UTF-8
Codec ID : S_TEXT/UTF8
Codec ID/Info : UTF-8 Plain Text
Duration : 2 h 0 min
Bit rate : 70 b/s
Count of elements : 1854
Stream size : 61.9 KiB (0%)
Title : English SDH SRT
Default : No
Forced : No

Text #3
ID : 6
Format : PGS
Muxing mode : zlib
Codec ID : S_HDMV/PGS
Codec ID/Info : Picture based subtitle format used on BDs/HD-DVDs
Duration : 2 h 0 min
Bit rate : 13.2 kb/s
Count of elements : 3724
Stream size : 11.3 MiB (0%)
Title : English PGS
Language : English
Default : No
Forced : No

Text #4
ID : 7
Format : VobSub
Muxing mode : zlib
Codec ID : S_VOBSUB
Codec ID/Info : Picture based subtitle format used on DVDs
Duration : 1 h 52 min
Bit rate : 5 108 b/s
Count of elements : 1572
Stream size : 4.11 MiB (0%)
Title : Thai VobSub
Language : Thai
Default : No
Forced : No

Text #5
ID : 8
Format : PGS
Muxing mode : zlib
Codec ID : S_HDMV/PGS
Codec ID/Info : Picture based subtitle format used on BDs/HD-DVDs
Duration : 1 h 52 min
Bit rate : 19.4 kb/s
Count of elements : 3144
Stream size : 15.6 MiB (0%)
Title : Thai PGS
Language : Thai
Default : No
Forced : Yes











Download: cornfile
http://cornfile.com/qwrpmhd2mqe7
Download: mekafile
http://www.mekafile.com/dl.php?f=nZ5097bNvGP2