ตำรวจคู่หูมือพระกาฬแห่งไมอามี่ มาร์คัส เบอร์เน็ตต์ (มาร์ติน ลอว์เรนซ์) นายตำรวจผู้กลัวเมียและคู่หูของมาร์คัส ไมค์ เลาว์รี่ (วิลล์ สมิธ) ต้องร่วมมือกันคลี่คลายคดีฆาตกรรม และยาเสพติดมูลค่ามหาศาล โดยมีพยานรู้เห็นเพียงหนึ่งเดียว คือสาวสวยที่เป็นพยานปากเอกนาม จูลี่ มอทท์ (เทีย เลโอนี่) ผู้สามารถระบุตัวฆาตกรผู้ต้องสงสัยได้จากการที่เธอต้ องเสียเพื่อนสาวผิวสีแทนโดยพ่อค้ายาเสพติดและฆาตกรนา มว่า ฟอเชส


Format : Matroska
Format version : Version 4 / Version 2
File size : 11.1 GiB
Duration : 1 h 58 min
Overall bit rate mode : Variable
Overall bit rate : 13.4 Mb/s
Movie name : [email protected]ts
Encoded date : UTC 2010-02-22 21:41:31
Writing application : mkvmerge v5.9.0 ( On The Loose ) built on Dec 9 2012 15:37:01
Writing library : libebml v1.3.0 + libmatroska v1.4.0

Video
ID : 1
Format : AVC
Format/Info : Advanced Video Codec
Format profile : [email protected]
Format settings : CABAC / 4 Ref Frames
Format settings, CABAC : Yes
Format settings, ReFrames : 4 frames
Codec ID : V_MPEG4/ISO/AVC
Duration : 1 h 58 min
Bit rate mode : Variable
Nominal bit rate : 10.2 Mb/s
Maximum bit rate : 62.5 Mb/s
Width : 1 920 pixels
Height : 1 036 pixels
Display aspect ratio : 1.85:1
Frame rate mode : Constant
Frame rate : 23.976 (24000/1001) FPS
Color space : YUV
Chroma subsampling : 4:2:0
Bit depth : 8 bits
Scan type : Progressive
Bits/(Pixel*Frame) : 0.215
Title : [email protected]ts
Writing library : x264 core 148 r2638 7599210
Language : English
Default : Yes
Forced : No

Audio #1
ID : 2
Format : DTS
Format/Info : Digital Theater Systems
Format profile : MA / Core
Codec ID : A_DTS
Duration : 1 h 58 min
Bit rate mode : Variable / Constant
Bit rate : Unknown / 1 509 kb/s
Channel(s) : 6 channels
Channel positions : Front: L C R, Side: L R, LFE
Sampling rate : 48.0 kHz
Frame rate : 93.750 FPS (512 SPF)
Bit depth : 16 bits
Compression mode : Lossless / Lossy
Title : Eng DTS-HDMA
Language : English
Default : Yes
Forced : Yes

Audio #2
ID : 3
Format : AC-3
Format/Info : Audio Coding 3
Codec ID : A_AC3
Duration : 1 h 58 min
Bit rate mode : Constant
Bit rate : 640 kb/s
Channel(s) : 6 channels
Channel positions : Front: L C R, Side: L R, LFE
Sampling rate : 48.0 kHz
Frame rate : 31.250 FPS (1536 SPF)
Bit depth : 16 bits
Compression mode : Lossy
Stream size : 544 MiB (5%)
Title : Thai Dolby 5.1 ch
Language : Thai
Service kind : Complete Main
Default : No
Forced : No

Text #1
ID : 4
Format : VobSub
Codec ID : S_VOBSUB
Codec ID/Info : Picture based subtitle format used on DVDs
Title : Thai Vob 480p
Language : Thai
Default : Yes
Forced : Yes

Text #2
ID : 5
Format : VobSub
Codec ID : S_VOBSUB
Codec ID/Info : Picture based subtitle format used on DVDs
Title : Thai Vob 720p
Language : Thai
Default : No
Forced : No

Text #3
ID : 6
Format : VobSub
Codec ID : S_VOBSUB
Codec ID/Info : Picture based subtitle format used on DVDs
Title : Thai Vob 1080p
Language : Thai
Default : No
Forced : No

Text #4
ID : 7
Format : PGS
Codec ID : S_HDMV/PGS
Codec ID/Info : Picture based subtitle format used on BDs/HD-DVDs
Title : Thai PGS
Language : Thai
Default : No
Forced : No

Text #5
ID : 8
Format : PGS
Codec ID : S_HDMV/PGS
Codec ID/Info : Picture based subtitle format used on BDs/HD-DVDs
Title : Thai PGS
Language : Thai
Default : No
Forced : No

Text #6
ID : 9
Format : PGS
Codec ID : S_HDMV/PGS
Codec ID/Info : Picture based subtitle format used on BDs/HD-DVDs
Title : Eng PGS
Language : English
Default : No
Forced : No

Text #7
ID : 10
Format : PGS
Codec ID : S_HDMV/PGS
Codec ID/Info : Picture based subtitle format used on BDs/HD-DVDs
Title : Eng SDH PGS
Language : English
Default : No
Forced : No





.................................................. .................................................. .........................





เมื่อสองตำรวจจอมระห่ำของไมอามี่ ไมก์ เลาว์รี่ (วิลล์ สมิธ) และ มาร์คัส เบอร์เน็ตต์ (มาร์ติน ลอว์เรนซ์) กลายเป็นส่วนหนึ่ง ของหน่วยงานสุดไฮเทค ที่ได้รับมอบหมายให้สกัดกั้น การไหลเข้ามาของยาเสพติดสู่ไมอามี่ พวกเขาเปิดโปงแผนการที่ชั่วร้าย ที่เกี่ยวพันกับเจ้าพ่อค้ายาสุดอำมหิต จอห์นนี่ ทาเปีย (จอร์ดี้ มอลล่า) ที่ตั้งใจจะขยายอาณาจักรของเขา และควบคุมธุรกิจการค้ายาทั้งหมดของเมือง และฆ่าทุกคนที่เข้ามาขวางทาง และสิ่งที่ทำให้เหตุการณ์เลวร้ายมากขึ้น ก็คือ ซิด (แกเบรียล ยูเนี่ยน) น้องสาวคนสวยของมาร์คัส ซึ่งเป็นเจ้าหน้าที่หน่วยปราบปรามยาเสพติด เกิดพบปัญหา ที่ทำให้สองฮีโร่ของเราต้องลุยกัน จนเกือบจะเกินขอบเขตของกฎหมาย ภารกิจยิ่งยุ่งยากมากขึ้น เมื่อไมก์และซิดเริ่มเกิดปิ๊งกัน ทำให้พี่ชายที่หวงน้องสาวต้องคอยเฝ้าระวัง แต่มาร์คัสและไมก์ ต้องเอาชนะความแตกต่างของพวกเขา เพื่อเอาชนะทาเปีย และเมื่อการแฝงตัวของซิดเริ่มเสี่ยงอันตราย สองหนุ่มแบ็ดบอยของเรา จึงต้องไปช่วยเหลือเธอ



Format : Matroska
Format version : Version 4 / Version 2
File size : 12.4 GiB
Duration : 2 h 26 min
Overall bit rate : 12.1 Mb/s
Movie name : Bad.Bo[email protected]CtHts
Encoded date : UTC 2010-02-22 21:41:31
Writing application : mkvmerge v5.9.0 ( On The Loose ) built on Dec 9 2012 15:37:01
Writing library : libebml v1.3.0 + libmatroska v1.4.0

Video
ID : 1
Format : AVC
Format/Info : Advanced Video Codec
Format profile : [email protected]
Format settings : CABAC / 4 Ref Frames
Format settings, CABAC : Yes
Format settings, ReFrames : 4 frames
Codec ID : V_MPEG4/ISO/AVC
Duration : 2 h 26 min
Nominal bit rate : 9 099 kb/s
Width : 1 920 pixels
Height : 800 pixels
Display aspect ratio : 2.40:1
Frame rate mode : Constant
Frame rate : 23.976 (24000/1001) FPS
Color space : YUV
Chroma subsampling : 4:2:0
Bit depth : 8 bits
Scan type : Progressive
Bits/(Pixel*Frame) : 0.247
Title : Bad.Bo[email protected]CtHts
Writing library : x264 core 130 r2273 b3065e6
Language : English
Default : Yes
Forced : No
Color range : Limited
Color primaries : BT.709
Transfer characteristics : BT.709
Matrix coefficients : BT.709

Audio #1
ID : 2
Format : AC-3
Format/Info : Audio Coding 3
Codec ID : A_AC3
Duration : 2 h 26 min
Bit rate mode : Constant
Bit rate : 448 kb/s
Channel(s) : 6 channels
Channel positions : Front: L C R, Side: L R, LFE
Sampling rate : 48.0 kHz
Frame rate : 31.250 FPS (1536 SPF)
Bit depth : 16 bits
Compression mode : Lossy
Stream size : 470 MiB (4%)
Title : Thai Master
Language : Thai
Service kind : Complete Main
Default : Yes
Forced : Yes

Audio #2
ID : 3
Format : DTS
Format/Info : Digital Theater Systems
Format profile : MA / Core
Codec ID : A_DTS
Duration : 2 h 26 min
Bit rate mode : Variable / Constant
Bit rate : Unknown / 1 509 kb/s
Channel(s) : 6 channels
Channel positions : Front: L C R, Side: L R, LFE
Sampling rate : 48.0 kHz
Frame rate : 93.750 FPS (512 SPF)
Bit depth : 16 bits
Compression mode : Lossless / Lossy
Title : English DTS-HD MA 5.1
Language : English
Default : No
Forced : No

Text #1
ID : 4
Format : VobSub
Codec ID : S_VOBSUB
Codec ID/Info : Picture based subtitle format used on DVDs
Title : Thai 480p
Language : Thai
Default : No
Forced : No

Text #2
ID : 5
Format : VobSub
Codec ID : S_VOBSUB
Codec ID/Info : Picture based subtitle format used on DVDs
Title : Thai 720p
Language : Thai
Default : No
Forced : No

Text #3
ID : 6
Format : VobSub
Codec ID : S_VOBSUB
Codec ID/Info : Picture based subtitle format used on DVDs
Title : Thai 1080p
Language : Thai
Default : No
Forced : Yes

Text #4
ID : 7
Format : VobSub
Codec ID : S_VOBSUB
Codec ID/Info : Picture based subtitle format used on DVDs
Title : Thai 1080p
Language : Thai
Default : Yes
Forced : Yes

Text #5
ID : 8
Format : VobSub
Codec ID : S_VOBSUB
Codec ID/Info : Picture based subtitle format used on DVDs
Title : Thai 1080p Yellow
Language : Thai
Default : No
Forced : No

Text #6
ID : 9
Format : VobSub
Codec ID : S_VOBSUB
Codec ID/Info : Picture based subtitle format used on DVDs
Title : Thai 1080p Out
Language : Thai
Default : No
Forced : No

Text #7
ID : 10
Format : VobSub
Codec ID : S_VOBSUB
Codec ID/Info : Picture based subtitle format used on DVDs
Title : Thai 1080p BIG
Language : Thai
Default : No
Forced : No

Text #8
ID : 11
Format : VobSub
Codec ID : S_VOBSUB
Codec ID/Info : Picture based subtitle format used on DVDs
Title : Thai 1080p Out [BIG]
Language : Thai
Default : No
Forced : No

Text #9
ID : 12
Format : PGS
Codec ID : S_HDMV/PGS
Codec ID/Info : Picture based subtitle format used on BDs/HD-DVDs
Language : Thai
Default : No
Forced : No

Text #10
ID : 13
Format : PGS
Codec ID : S_HDMV/PGS
Codec ID/Info : Picture based subtitle format used on BDs/HD-DVDs
Title : Thai PGS
Language : Thai
Default : No
Forced : No

Text #11
ID : 14
Format : PGS
Codec ID : S_HDMV/PGS
Codec ID/Info : Picture based subtitle format used on BDs/HD-DVDs
Title : Thai PGS Out
Language : Thai
Default : No
Forced : No

Text #12
ID : 15
Format : VobSub
Codec ID : S_VOBSUB
Codec ID/Info : Picture based subtitle format used on DVDs
Title : English
Language : Thai
Default : No
Forced : No




[email protected]ts.mkv - 11.1 GB
Bad.Bo[email protected]CtHts.mkv - 12.4 GB

1
http://www.mekafile.com/dl.php?f=7s4701bNrvlz
2
http://www.mekafile.com/dl.php?f=W1b0a1bNrvtt