+ Reply to Thread
Results 1 to 4 of 4
  1. #1
    Administrators Duckload.us's Avatar
    Join Date
    Dec 2010
    Posts
    96,807
    Thanks
    9
    Thanked 98,295 Times in 47,295 Posts

    Question [Mini HD] Mission Impossible Fallout (2018) mkv Ԫ:ʫ- [ҡ:ѧ-][SUB:ѧ-][1080p] § 5.1 From Blu ray Master





    ѺáѺҢͧ ٫ Mission: Impossible - Fallout (Ԫ: ʫ ҷ) ոҹ ѹ ( ٫) з IMF ( ŴԹ, ͹ 硡, ԧ ) ¾ѹԵ (礡 ѹ ι) ͧѺ㹻Ժѵԡ÷ͧ觡Ѻѧҡ áԨԴԴҴ ͡˹ͨҡѡʴ Ҿ¹ѧ ι , ͧ 絵 ʫ ҹ 礤 ѧѺ˹ҷӡѺҤ

    General
    Unique ID : 182340217124346199116884436745730599471 (0x892D72CBD290C161B60BC5A4E9432A2F)
    Complete name : [Mini HD] Mission Impossible Fallout (2018).mkv
    Format : Matroska
    Format version : Version 4 / Version 2
    File size : 4.32 GiB
    Duration : 2 h 27 min
    Overall bit rate : 4 193 kb/s
    Encoded date : UTC 2018-12-03 07:08:01 / UTC 2018-12-02T13:02:08Z
    Writing application : mkvmerge v8.3.0 ('Over the Horizon') 64bit
    Writing library : libebml v1.3.1 + libmatroska v1.4.2 / Lavf55.12.0

    Video
    ID : 1
    Format : AVC
    Format/Info : Advanced Video Codec
    Format profile : [email protected]
    Format settings, CABAC : Yes
    Format settings, ReFrames : 4 frames
    Codec ID : V_MPEG4/ISO/AVC
    Duration : 2 h 27 min
    Bit rate : 2 829 kb/s
    Width : 1 920 pixels
    Height : 804 pixels
    Display aspect ratio : 2.40:1
    Frame rate mode : Constant
    Frame rate : 23.976 (24000/1001) FPS
    Color space : YUV
    Chroma subsampling : 4:2:0
    Bit depth : 8 bits
    Scan type : Progressive
    Bits/(Pixel*Frame) : 0.076
    Stream size : 2.91 GiB (67%)
    Writing library : x264 core 142 r2479 dd79a61
    Encoding settings : cabac=1 / ref=1 / deblock=1:0:0 / analyse=0x1:0x111 / me=hex / subme=2 / psy=1 / psy_rd=1.00:0.00 / mixed_ref=0 / me_range=16 / chroma_me=1 / trellis=0 / 8x8dct=0 / cqm=0 / deadzone=21,11 / fast_pskip=1 / chroma_qp_offset=0 / threads=6 / lookahead_threads=2 / sliced_threads=0 / nr=0 / decimate=1 / interlaced=0 / bluray_compat=0 / constrained_intra=0 / bframes=3 / b_pyramid=2 / b_adapt=1 / b_bias=0 / direct=1 / weightb=1 / open_gop=0 / weightp=1 / keyint=240 / keyint_min=24 / scenecut=40 / intra_refresh=0 / rc_lookahead=10 / rc=crf / mbtree=1 / crf=22.0 / qcomp=0.60 / qpmin=0 / qpmax=69 / qpstep=4 / vbv_maxrate=20000 / vbv_bufsize=25000 / crf_max=0.0 / nal_hrd=none / filler=0 / ip_ratio=1.40 / aq=1:1.00
    Language : Thai
    Default : Yes
    Forced : Yes
    Color range : Limited
    Color primaries : BT.709
    Transfer characteristics : BT.709
    Matrix coefficients : BT.709
    Statistics Tags Issue : mkvmerge v8.3.0 ('Over the Horizon') 64bit 2018-12-03 07:08:01 / mkvmerge v8.3.0 ('Over the Horizon') 64bit 2018-12-03 07:08:01 / UTC 2018-12-02T13:02:08Z
    FromStats_BitRate : 2855727
    FromStats_Duration : 02:27:24.920000000
    FromStats_FrameCount : 212066
    FromStats_StreamSize : 3157334983

    Audio #1
    ID : 2
    Format : AC-3
    Format/Info : Audio Coding 3
    Mode extension : CM (complete main)
    Format settings, Endianness : Big
    Codec ID : A_AC3
    Duration : 2 h 27 min
    Bit rate mode : Constant
    Bit rate : 640 kb/s
    Channel(s) : 6 channels
    Channel positions : Front: L C R, Side: L R, LFE
    Sampling rate : 48.0 kHz
    Frame rate : 31.250 FPS (1536 spf)
    Compression mode : Lossy
    Delay relative to video : -83 ms
    Stream size : 675 MiB (15%)
    Language : English
    Default : No
    Forced : No
    Statistics Tags Issue : mkvmerge v8.3.0 ('Over the Horizon') 64bit 2018-12-03 07:08:01 / mkvmerge v8.3.0 ('Over the Horizon') 64bit 2018-12-03 07:08:01 / UTC 2018-12-02T13:02:08Z
    FromStats_BitRate : 640000
    FromStats_Duration : 02:27:24.928000000
    FromStats_FrameCount : 276404
    FromStats_StreamSize : 707594240

    Audio #2
    ID : 3
    Format : AC-3
    Format/Info : Audio Coding 3
    Mode extension : CM (complete main)
    Format settings, Endianness : Big
    Codec ID : A_AC3
    Duration : 2 h 27 min
    Bit rate mode : Constant
    Bit rate : 640 kb/s
    Channel(s) : 6 channels
    Channel positions : Front: L C R, Side: L R, LFE
    Sampling rate : 48.0 kHz
    Frame rate : 31.250 FPS (1536 spf)
    Compression mode : Lossy
    Delay relative to video : -83 ms
    Stream size : 675 MiB (15%)
    Language : Thai
    Default : Yes
    Forced : Yes
    Statistics Tags Issue : mkvmerge v8.3.0 ('Over the Horizon') 64bit 2018-12-03 07:08:01 / mkvmerge v8.3.0 ('Over the Horizon') 64bit 2018-12-03 07:08:01 / UTC 2018-12-02T13:02:08Z
    FromStats_BitRate : 640000
    FromStats_Duration : 02:27:24.928000000
    FromStats_FrameCount : 276404
    FromStats_StreamSize : 707594240

    Text #1
    ID : 4
    Format : PGS
    Muxing mode : zlib
    Codec ID : S_HDMV/PGS
    Codec ID/Info : Picture based subtitle format used on BDs/HD-DVDs
    Language : English
    Default : No
    Forced : No
    Statistics Tags Issue : mkvmerge v8.3.0 ('Over the Horizon') 64bit 2018-12-03 07:08:01 / mkvmerge v8.3.0 ('Over the Horizon') 64bit 2018-12-03 07:08:01 / UTC 2018-12-02T13:02:08Z
    FromStats_BitRate : 9026
    FromStats_Duration : 02:19:10.801000000
    FromStats_FrameCount : 3111
    FromStats_StreamSize : 9421839

    Text #2
    ID : 5
    Format : PGS
    Muxing mode : zlib
    Codec ID : S_HDMV/PGS
    Codec ID/Info : Picture based subtitle format used on BDs/HD-DVDs
    Language : Thai
    Default : No
    Forced : No
    Statistics Tags Issue : mkvmerge v8.3.0 ('Over the Horizon') 64bit 2018-12-03 07:08:01 / mkvmerge v8.3.0 ('Over the Horizon') 64bit 2018-12-03 07:08:01 / UTC 2018-12-02T13:02:08Z
    FromStats_BitRate : 6322
    FromStats_Duration : 02:26:42.920000000
    FromStats_FrameCount : 2765
    FromStats_StreamSize : 6957411

    Text #3
    ID : 6
    Format : PGS
    Muxing mode : zlib
    Codec ID : S_HDMV/PGS
    Codec ID/Info : Picture based subtitle format used on BDs/HD-DVDs
    Language : Thai
    Default : No
    Forced : No
    Statistics Tags Issue : mkvmerge v8.3.0 ('Over the Horizon') 64bit 2018-12-03 07:08:01 / mkvmerge v8.3.0 ('Over the Horizon') 64bit 2018-12-03 07:08:01 / UTC 2018-12-02T13:02:08Z
    FromStats_BitRate : 14655
    FromStats_Duration : 02:19:10.884000000
    FromStats_FrameCount : 2764
    FromStats_StreamSize : 15298352

    Text #4
    ID : 7
    Format : PGS
    Muxing mode : zlib
    Codec ID : S_HDMV/PGS
    Codec ID/Info : Picture based subtitle format used on BDs/HD-DVDs
    Language : Thai
    Default : No
    Forced : No
    Statistics Tags Issue : mkvmerge v8.3.0 ('Over the Horizon') 64bit 2018-12-03 07:08:01 / mkvmerge v8.3.0 ('Over the Horizon') 64bit 2018-12-03 07:08:01 / UTC 2018-12-02T13:02:08Z
    FromStats_BitRate : 13863
    FromStats_Duration : 02:19:10.884000000
    FromStats_FrameCount : 2764
    FromStats_StreamSize : 14471784

    Text #5
    ID : 8
    Format : VobSub
    Muxing mode : zlib
    Codec ID : S_VOBSUB
    Codec ID/Info : Picture based subtitle format used on DVDs
    Language : English
    Default : No
    Forced : No
    Statistics Tags Issue : mkvmerge v8.3.0 ('Over the Horizon') 64bit 2018-12-03 07:08:01 / mkvmerge v8.3.0 ('Over the Horizon') 64bit 2018-12-03 07:08:01 / UTC 2018-12-02T13:02:08Z
    FromStats_BitRate : 4892
    FromStats_Duration : 02:19:07.252000000
    FromStats_FrameCount : 1554
    FromStats_StreamSize : 5104637

    Text #6
    ID : 9
    Format : VobSub
    Muxing mode : zlib
    Codec ID : S_VOBSUB
    Codec ID/Info : Picture based subtitle format used on DVDs
    Language : Thai
    Default : Yes
    Forced : Yes
    Statistics Tags Issue : mkvmerge v8.3.0 ('Over the Horizon') 64bit 2018-12-03 07:08:01 / mkvmerge v8.3.0 ('Over the Horizon') 64bit 2018-12-03 07:08:01 / UTC 2018-12-02T13:02:08Z
    FromStats_BitRate : 4301
    FromStats_Duration : 02:19:10.877000000
    FromStats_FrameCount : 1382
    FromStats_StreamSize : 4489830

    Text #7
    ID : 10
    Format : VobSub
    Muxing mode : zlib
    Codec ID : S_VOBSUB
    Codec ID/Info : Picture based subtitle format used on DVDs
    Language : Thai
    Default : No
    Forced : No
    Statistics Tags Issue : mkvmerge v8.3.0 ('Over the Horizon') 64bit 2018-12-03 07:08:01 / mkvmerge v8.3.0 ('Over the Horizon') 64bit 2018-12-03 07:08:01 / UTC 2018-12-02T13:02:08Z
    FromStats_BitRate : 4062
    FromStats_Duration : 02:19:10.877000000
    FromStats_FrameCount : 1382
    FromStats_StreamSize : 4240771






    Download: cornfile
    http://cornfile.com/b5n34u3vzdnk
    Download: mekafile
    http://www.mekafile.com/dl.php?f=W1af9ebNoAZR

  2. The Following 5 Users Say Thank You to Duckload.us For This Useful Post:

    agg001 (12-04-2018), apichartdear (12-05-2018), noi54 (12-06-2018), smakha (12-07-2018), Wesker_TOT (12-04-2018)

  3. #2
    Senior Member
    Join Date
    Dec 2013
    Posts
    1,283
    Thanks
    3,219
    Thanked 0 Times in 0 Posts
    ͺسѺ...

  4. #3
    Senior Member
    Join Date
    Jan 2011
    Posts
    579
    Thanks
    726
    Thanked 0 Times in 0 Posts
    ͺسѺ

  5. #4
    Senior Member
    Join Date
    Jun 2014
    Posts
    372
    Thanks
    0
    Thanked 0 Times in 0 Posts
    ͺسѺ

Thread Information

Users Browsing this Thread

There are currently 1 users browsing this thread. (0 members and 1 guests)

     

Posting Permissions

  • You may not post new threads
  • You may not post replies
  • You may not post attachments
  • You may not edit your posts