Daredevil



Rating: 8.7/10 Year: 2015 Genres: Action / Crime / Drama / Fantasy / Sci-Fi / Thriller Runtime: 54 min Language: English Director: n/A Writers: Bill Everett / Drew Goddard / Stan Lee Cast: Charlie Cox / Deborah Ann Woll / Elden HensonPlot:

As a child Matt Murdock was blinded by a chemical spill in a freak accident. Instead of limiting him it gave him superhuman senses that enabled him to see the world in a unique and powerful way. Now he uses these powers to deliver justice, not only as a lawyer in his own law firm, but also as vigilante at night, stalking the streets of Hell's Kitchen as Daredevil, the man without fear. Written by DDK

**谜熟实谜肺赈描氛枨枰摇压氰掖辗砧守储艇 Marvels 獯 Netflix
で伊乱 13 低龚韩斋谚

嗝阻艇妈 崃绲 嗔兔齑缤に关枇假榈液痛笛椐岬杪学啻纭 狙补窑且潦伊颐定摇幻惺曳恃良咽 嗑阻汀乓锣荤故得辗握饷杪伊よ婴坠愎挂 Daredevil 烈っ仪拐猷吉原斯橐⊙ 笛腔磐 嗷绻嗨地闼猷⒁甸艇吩椐瘁揣 崤榍搜埂叛毫沂勹室裂 嗔阻偷橥оㄍ⊙氦鸳驹 且旅橐路砧⒅楣柰琳收恃狗砧守瘁藕辛涨衣瞄衣妥韫 嗉骡┝驼 卵Я Elektra 磷褪学艘檬仪吐勹啶章Б橐 啖舀小叛毫衣坠寺汛驼′撮渌了叛Ж摇丛瑙寿瑜且链恿状 .....

***
Video
ID : 1
Format : AVC
Format/Info : Advanced Video Codec
Format profile : [email protected]
Format settings : CABAC / 3 Ref Frames
Format settings, CABAC : Yes
Format settings, ReFrames : 3 frames
Codec ID : V_MPEG4/ISO/AVC
Duration : 54 min 15 s
Bit rate mode : Variable
Bit rate : 5 800 kb/s
Maximum bit rate : 8 700 kb/s
Width : 1 920 pixels
Height : 1 080 pixels
Display aspect ratio : 16:9
Frame rate mode : Constant
Frame rate : 23.976 (24000/1001) FPS
Color space : YUV
Chroma subsampling : 4:2:0
Bit depth : 8 bits
Scan type : Progressive
Bits/(Pixel*Frame) : 0.117
Stream size : 2.15 GiB (93%)
Writing library : x264 core 148 r2715 7e75228
Encoding settings : cabac=1 / ref=3 / deblock=1:0:0 / analyse=0x1:0x111 / me=umh / subme=10 / psy=1 / psy_rd=1.00:0.00 / mixed_ref=1 / me_range=24 / chroma_me=1 / trellis=2 / 8x8dct=0 / cqm=0 / deadzone=21,11 / fast_pskip=1 / chroma_qp_offset=-2 / threads=8 / lookahead_threads=1 / sliced_threads=0 / nr=0 / decimate=1 / interlaced=0 / bluray_compat=0 / stitchable=1 / constrained_intra=0 / bframes=2 / b_pyramid=0 / b_adapt=2 / b_bias=0 / direct=3 / weightb=1 / open_gop=0 / weightp=2 / keyint=48 / keyint_min=25 / scenecut=0 / intra_refresh=0 / rc_lookahead=48 / rc=2pass / mbtree=1 / bitrate=5800 / ratetol=1.0 / qcomp=0.50 / qpmin=6 / qpmax=51 / qpstep=4 / cplxblur=20.0 / qblur=0.5 / vbv_maxrate=8700 / vbv_bufsize=11600 / nal_hrd=vbr / filler=0 / ip_ratio=1.40 / aq=1:1.00
Default : Yes
Forced : No

Audio
ID : 2
Format : E-AC-3 JOC
Format/Info : Enhanced AC-3 with Joint Object Coding
Commercial name : Dolby Digital Plus with Dolby Atmos
Codec ID : A_EAC3
Duration : 54 min 15 s
Bit rate mode : Constant
Bit rate : 448 kb/s
Channel(s) : 6 channels
Channel layout : L R C LFE Ls Rs
Sampling rate : 48.0 kHz
Frame rate : 31.250 FPS (1536 SPF)
Compression mode : Lossy
Stream size : 174 MiB (7%)
Title : English
Language : English
Service kind : Complete Main
Default : Yes
Forced : No
Complexity index : 16
Number of dynamic objects : 15
Bed channel count : 1 channel
Bed channel configuration : LFE

Text #1
ID : 3
Format : UTF-8
Codec ID : S_TEXT/UTF8
Codec ID/Info : UTF-8 Plain Text
Duration : 51 min 53 s
Bit rate : 53 b/s
Count of elements : 587
Stream size : 20.1 KiB (0%)
Title : SDH
Language : English
Default : Yes
Forced : No

Text #2
ID : 4
Format : UTF-8
Codec ID : S_TEXT/UTF8
Codec ID/Info : UTF-8 Plain Text
Duration : 51 min 20 s
Bit rate : 75 b/s
Count of elements : 529
Stream size : 28.4 KiB (0%)
Language : Arabic
Default : No
Forced : No

Text #3
ID : 5
Format : UTF-8
Codec ID : S_TEXT/UTF8
Codec ID/Info : UTF-8 Plain Text
Duration : 51 min 20 s
Bit rate : 44 b/s
Count of elements : 531
Stream size : 16.9 KiB (0%)
Language : Danish
Default : No
Forced : No

Text #4
ID : 6
Format : UTF-8
Codec ID : S_TEXT/UTF8
Codec ID/Info : UTF-8 Plain Text
Duration : 51 min 20 s
Bit rate : 45 b/s
Count of elements : 522
Stream size : 17.1 KiB (0%)
Language : German
Default : No
Forced : No

Text #5
ID : 7
Format : UTF-8
Codec ID : S_TEXT/UTF8
Codec ID/Info : UTF-8 Plain Text
Duration : 51 min 20 s
Bit rate : 77 b/s
Count of elements : 526
Stream size : 29.1 KiB (0%)
Language : Greek
Default : No
Forced : No

Text #6
ID : 8
Format : UTF-8
Codec ID : S_TEXT/UTF8
Codec ID/Info : UTF-8 Plain Text
Duration : 51 min 20 s
Bit rate : 42 b/s
Count of elements : 530
Stream size : 15.9 KiB (0%)
Language : Spanish
Default : No
Forced : No

Text #7
ID : 9
Format : UTF-8
Codec ID : S_TEXT/UTF8
Codec ID/Info : UTF-8 Plain Text
Duration : 51 min 20 s
Bit rate : 44 b/s
Count of elements : 531
Stream size : 16.7 KiB (0%)
Title : European
Language : Spanish
Default : No
Forced : No

Text #8
ID : 10
Format : UTF-8
Codec ID : S_TEXT/UTF8
Codec ID/Info : UTF-8 Plain Text
Duration : 51 min 20 s
Bit rate : 44 b/s
Count of elements : 522
Stream size : 16.6 KiB (0%)
Language : Finnish
Default : No
Forced : No

Text #9
ID : 11
Format : UTF-8
Codec ID : S_TEXT/UTF8
Codec ID/Info : UTF-8 Plain Text
Duration : 51 min 20 s
Bit rate : 48 b/s
Count of elements : 528
Stream size : 18.1 KiB (0%)
Language : French
Default : No
Forced : No

Text #10
ID : 12
Format : UTF-8
Codec ID : S_TEXT/UTF8
Codec ID/Info : UTF-8 Plain Text
Duration : 51 min 20 s
Bit rate : 69 b/s
Count of elements : 536
Stream size : 26.2 KiB (0%)
Language : Hebrew
Default : No
Forced : No

Text #11
ID : 13
Format : UTF-8
Codec ID : S_TEXT/UTF8
Codec ID/Info : UTF-8 Plain Text
Duration : 51 min 20 s
Bit rate : 44 b/s
Count of elements : 532
Stream size : 16.6 KiB (0%)
Language : Indonesian
Default : No
Forced : No

Text #12
ID : 14
Format : UTF-8
Codec ID : S_TEXT/UTF8
Codec ID/Info : UTF-8 Plain Text
Duration : 51 min 20 s
Bit rate : 46 b/s
Count of elements : 527
Stream size : 17.5 KiB (0%)
Language : Italian
Default : No
Forced : No

Text #13
ID : 15
Format : UTF-8
Codec ID : S_TEXT/UTF8
Codec ID/Info : UTF-8 Plain Text
Duration : 51 min 21 s
Bit rate : 38 b/s
Count of elements : 504
Stream size : 14.6 KiB (0%)
Language : Japanese
Default : No
Forced : No

Text #14
ID : 16
Format : UTF-8
Codec ID : S_TEXT/UTF8
Codec ID/Info : UTF-8 Plain Text
Duration : 51 min 20 s
Bit rate : 50 b/s
Count of elements : 533
Stream size : 18.9 KiB (0%)
Language : Korean
Default : No
Forced : No

Text #15
ID : 17
Format : UTF-8
Codec ID : S_TEXT/UTF8
Codec ID/Info : UTF-8 Plain Text
Duration : 51 min 20 s
Bit rate : 44 b/s
Count of elements : 528
Stream size : 16.7 KiB (0%)
Language : Norwegian Bokmal
Default : No
Forced : No

Text #16
ID : 18
Format : UTF-8
Codec ID : S_TEXT/UTF8
Codec ID/Info : UTF-8 Plain Text
Duration : 51 min 20 s
Bit rate : 41 b/s
Count of elements : 506
Stream size : 15.4 KiB (0%)
Language : Dutch
Default : No
Forced : No

Text #17
ID : 19
Format : UTF-8
Codec ID : S_TEXT/UTF8
Codec ID/Info : UTF-8 Plain Text
Duration : 51 min 20 s
Bit rate : 43 b/s
Count of elements : 525
Stream size : 16.5 KiB (0%)
Language : Polish
Default : No
Forced : No

Text #18
ID : 20
Format : UTF-8
Codec ID : S_TEXT/UTF8
Codec ID/Info : UTF-8 Plain Text
Duration : 51 min 20 s
Bit rate : 46 b/s
Count of elements : 531
Stream size : 17.4 KiB (0%)
Language : Portuguese
Default : No
Forced : No

Text #19
ID : 21
Format : UTF-8
Codec ID : S_TEXT/UTF8
Codec ID/Info : UTF-8 Plain Text
Duration : 51 min 20 s
Bit rate : 46 b/s
Count of elements : 527
Stream size : 17.5 KiB (0%)
Title : Brazilian
Language : Portuguese
Default : No
Forced : No

Text #20
ID : 22
Format : UTF-8
Codec ID : S_TEXT/UTF8
Codec ID/Info : UTF-8 Plain Text
Duration : 51 min 20 s
Bit rate : 44 b/s
Count of elements : 525
Stream size : 16.7 KiB (0%)
Language : Romanian
Default : No
Forced : No

Text #21
ID : 23
Format : UTF-8
Codec ID : S_TEXT/UTF8
Codec ID/Info : UTF-8 Plain Text
Duration : 51 min 20 s
Bit rate : 70 b/s
Count of elements : 529
Stream size : 26.3 KiB (0%)
Language : Russian
Default : No
Forced : No

Text #22
ID : 24
Format : UTF-8
Codec ID : S_TEXT/UTF8
Codec ID/Info : UTF-8 Plain Text
Duration : 51 min 20 s
Bit rate : 45 b/s
Count of elements : 535
Stream size : 17.3 KiB (0%)
Language : Swedish
Default : No
Forced : No

Text #23
ID : 25
Format : UTF-8
Codec ID : S_TEXT/UTF8
Codec ID/Info : UTF-8 Plain Text
Duration : 51 min 20 s
Bit rate : 123 b/s
Count of elements : 533
Stream size : 46.3 KiB (0%)
Language : Thai
Default : No
Forced : No

Text #24
ID : 26
Format : UTF-8
Codec ID : S_TEXT/UTF8
Codec ID/Info : UTF-8 Plain Text
Duration : 51 min 20 s
Bit rate : 48 b/s
Count of elements : 517
Stream size : 18.2 KiB (0%)
Language : Turkish
Default : No
Forced : No

Text #25
ID : 27
Format : UTF-8
Codec ID : S_TEXT/UTF8
Codec ID/Info : UTF-8 Plain Text
Duration : 51 min 20 s
Bit rate : 61 b/s
Count of elements : 528
Stream size : 23.0 KiB (0%)
Language : Vietnamese
Default : No
Forced : No

Text #26
ID : 28
Format : UTF-8
Codec ID : S_TEXT/UTF8
Codec ID/Info : UTF-8 Plain Text
Duration : 51 min 20 s
Bit rate : 46 b/s
Count of elements : 533
Stream size : 17.4 KiB (0%)
Title : Simplified
Language : Chinese
Default : No
Forced : No

Text #27
ID : 29
Format : UTF-8
Codec ID : S_TEXT/UTF8
Codec ID/Info : UTF-8 Plain Text
Duration : 51 min 20 s
Bit rate : 43 b/s
Count of elements : 535
Stream size : 16.4 KiB (0%)
Title : Traditional
Language : Chinese
Default : No
Forced : No




1
http://www.filecondo.com/dl.php?f=0c65ea1GhnM3
2
http://www.filecondo.com/dl.php?f=8a6d921GhnMZ
3
http://www.filecondo.com/dl.php?f=Rfcd7f1GhnNX
4
http://www.filecondo.com/dl.php?f=d8d9b11GhnOX
5
http://www.filecondo.com/dl.php?f=dc75e41GhnPT
6
http://www.filecondo.com/dl.php?f=n328f51GhnQZ
7
http://www.filecondo.com/dl.php?f=8b60121GhnRX
8
http://www.filecondo.com/dl.php?f=W0b7191GhnSV
9
http://www.filecondo.com/dl.php?f=s23e771GhnTT
10
http://www.filecondo.com/dl.php?f=8f9bbb1GhnUP
11
http://www.filecondo.com/dl.php?f=N637911GhnVF
12
http://www.filecondo.com/dl.php?f=c1c9aa1GhnWH
13
http://www.filecondo.com/dl.php?f=F7aa9e1GhnXF


Marvels.Daredevil.S03E01.Resurrection.1080p.NF.WEB-DL.DDP5.1.x264-NTG.mkv - 1.3 GB
Marvels.Daredevil.S03E02.Please.1080p.NF.WEB-DL.DDP5.1.x264-NTG.mkv - 1.3 GB
Marvels.Daredevil.S03E03.No.Good.Deed.1080p.NF.WEB-DL.DDP5.1.x264-NTG.mkv - 1.3 GB
Marvels.Daredevil.S03E04.Blindsided.1080p.NF.WEB-DL.DDP5.1.x264-NTG.mkv - 1.5 GB
Marvels.Daredevil.S03E05.The.Perfect.Game.1080p.NF .WEB-DL.DDP5.1.x264-NTG.mkv - 1.1 GB
Marvels.Daredevil.S03E06.The.Devil.You.Know.1080p. NF.WEB-DL.DDP5.1.x264-NTG.mkv - 2.3 GB
Marvels.Daredevil.S03E07.Aftermath.1080p.NF.WEB-DL.DDP5.1.x264-NTG.mkv - 2.1 GB
Marvels.Daredevil.S03E08.UpstairsDownstairs.1080p. NF.WEB-DL.DDP5.1.x264-NTG.mkv - 2.1 GB
Marvels.Daredevil.S03E09.Revelations.1080p.NF.WEB-DL.DDP5.1.x264-NTG.mkv - 2.3 GB
Marvels.Daredevil.S03E10.Karen.1080p.NF.WEB-DL.DDP5.1.x264-NTG.mkv - 2.0 GB
Marvels.Daredevil.S03E11.Reunion.1080p.NF.WEB-DL.DDP5.1.x264-NTG.mkv - 984.3 MB
Marvels.Daredevil.S03E12.One.Last.Shot.1080p.NF.WE B-DL.DDP5.1.x264-NTG.mkv - 1.4 GB
Marvels.Daredevil.S03E13.A.New.Napkin.1080p.NF.WEB-DL.DDP5.1.x264-NTG.mkv - 1.6 GB